Меню пользователя
Реклама
Лучшие за месяц  ↑↓
    Лучшие аплоадеры фильмов:
  • 1. 13u  (12)
    Лучшие аплоадеры музыки:
  • 1. kandobrik  (136)
    Лучшие аплоадеры игр:
  • 1. ThreeZ  (79)
    Лучшие аплоадеры сериалов:
  • 1. Ressa  (67)
Обсуждают в блогах  ↑↓
Случайные раздачи  ↑↓
Фильмы: Бои без правил / UFC 84 Ill Will (2008) DVDRip Музыка: Secret Vibes - Fire Fly (2009) MP3 Фильмы: Бесценный Доллар 2 (2009) TVRip Фильмы: Борьба за выживание. Болотный аллигатор  / Swamp Alligator (1991) SATRip Сериалы: Звездные врата: Вселенная (сезон 1) (эпизод 10) / Stargate Universe [LostFilm] (2009) HDTV-Rip Музыка: Diode - Brooklyn Rock EP (2009) MP3 Фильмы: Монти Пайтон и Священный Грааль  / Monty Python and the Holy Grail  (1975) DVDRip Фильмы: Авалон: Подводная миссия / Avalon: Beyond the Abyss (1999) VHSRip Музыка: Trance In Motion Vol.42 [VA] (2010) MP3 Фильмы: Самая обаятельная и привлекательная (1985) DVDRip
Статистика
Яндекс.Метрика

Uriah Heep - Celebration (2009) APE

Примагнититься
проверено: robinspb
Название:Uriah Heep
Альбом:Celebration
Год выхода:2009
Жанр:Rock
Длительность:62 мин.
Рейтинг:
7.75 (4)
No.01 - Only Human (3:21)

No.02 - Bird Of Prey (4:00)

No.03 - Surise (4:22)

No.04 - Stealin' (4:41)

No.05 - Corridors Of Madness (5:22)

No.06 - Beetween Two Worlds (6:10)

No.07 - The Wizard (3:15)

No.08 - Free Me (3:28)

No.09 - Free'n'Easy (2:35)

No.10 - Gypsy (4:35)

No.11 - Look At Yourself (3:46)

No.12 - July Morning (8:48)

No.13 - Easy Livin' (2:56)

No.14 - Lady In Black (5:31)


Качество:895 kbps
Формат:APE
Размер:402.28 MB
Файлов:3 [Древовидный список] [Линейный список]
Начало раздачи:11 Октября 2009 в 09:52
Раздает:nik_keri
Сидов: 0        Личеров: 0        Отзывов: 3

Поблагодарили за раздачу (1):  igorek_44

Комментарии (3) Все на одной странице
11 Октября 2009 в 14:54
Отсутствует   potekhin | Участник | Стаж: 10 г. 8 мес. 8 дн.
0
а где же cue-файл???
12 Октября 2009 в 17:54
Отсутствует   potekhin | Участник | Стаж: 10 г. 8 мес. 8 дн.
0
Для понимающих и нуждающихся cue-файл:


REM GENRE "Hard Rock"
REM DATE 2009
REM DISCID BE0EB70E
REM COMMENT "ExactAudioCopy v0.99pb5"
PERFORMER "Uriah Heep"
TITLE "Celebration"
FILE "Uriah Heep - Celebration.ape" WAVE
TRACK 01 AUDIO
TITLE "Only Human"
PERFORMER "Uriah Heep"
INDEX 01 00:00:00
TRACK 02 AUDIO
TITLE "Bird Of Prey"
PERFORMER "Uriah Heep"
INDEX 01 03:21:23
TRACK 03 AUDIO
TITLE "Surise"
PERFORMER "Uriah Heep"
INDEX 01 07:21:26
TRACK 04 AUDIO
TITLE "Stealin'"
PERFORMER "Uriah Heep"
INDEX 01 11:43:61
TRACK 05 AUDIO
TITLE "Corridors Of Madness"
PERFORMER "Uriah Heep"
INDEX 01 16:24:28
TRACK 06 AUDIO
TITLE "Beetween Two Worlds"
PERFORMER "Uriah Heep"
INDEX 01 21:45:72
TRACK 07 AUDIO
TITLE "The Wizard"
PERFORMER "Uriah Heep"
INDEX 01 27:55:52
TRACK 08 AUDIO
TITLE "Free Me"
PERFORMER "Uriah Heep"
INDEX 01 31:10:31
TRACK 09 AUDIO
TITLE "Free'n'Easy"
PERFORMER "Uriah Heep"
INDEX 01 34:38:07
TRACK 10 AUDIO
TITLE "Gypsy"
PERFORMER "Uriah Heep"
INDEX 01 37:12:60
TRACK 11 AUDIO
TITLE "Look At Yourself"
PERFORMER "Uriah Heep"
INDEX 01 41:47:36
TRACK 12 AUDIO
TITLE "July Morning"
PERFORMER "Uriah Heep"
INDEX 01 45:33:33
TRACK 13 AUDIO
TITLE "Easy Livin'"
PERFORMER "Uriah Heep"
INDEX 01 54:21:17
TRACK 14 AUDIO
TITLE "Lady In Black"
PERFORMER "Uriah Heep"
INDEX 01 57:17:26
13 Января 2010 в 17:04
Отсутствует   sexflaxe | Участник | Стаж: 10 г. 27 дн.
0
чем это слушать? с APE не знаком....
Чтоб добавить комментарий нужна
 
Опрос  ↑↓
Умеете ли вы обходить блокировки сайтов?
  
  
  
  
 
Loading...
 
Кто на сайте  ↑↓
Сегодня ДР у ...  ↑↓
012232 (19)
0259Dima (46)
0957067406 (36)
0988559302 (30)
101245 (26)
19831983 (35)
1_Ra_1 (27)
2260262 (17)
231019 (28)
23101986 (32)
231020022 (18)
231078pv (40)
231096 (22)
231096li (22)
2310bn (17)
23forest (41)
23ilushka81 (37)
27niko27 (40)
28061969 (38)
33Lipa (41)
3690687 (17)
380950445391 (18)
392932398 (30)
451036 (38)
555viktor555 (34)

Bесь список (883)
Реклама
 
Загрузка...