Меню пользователя
Реклама
Лучшие за месяц  ↑↓
    Лучшие аплоадеры фильмов:
  • 1. dilat  (46)
    Лучшие аплоадеры музыки:
  • 1. kandobrik  (111)
    Лучшие аплоадеры игр:
  • 1. dilat  (42)
    Лучшие аплоадеры сериалов:
  • 1. Ressa  (41)
    Лучшие блогеры:
  • 1. Sokolovi4  (+25)
Обсуждают в блогах  ↑↓
Случайные раздачи  ↑↓
Фильмы: Верная рука - друг индейцев / Old surehand (1965) DVDRip Фильмы: К черту любовь / Down with Love (2003) DVDRip Игры: Spore: Creepy & Cute Parts Pack (2008) PC Фильмы: Все умрут, а я останусь (2008) DVD-5 Фильмы: Первый троллейбус (1963) DVDRip Сериалы: Робин Гуд (сезон 3) (эпизод 1) / Robin Hood (2009) HDTV-Rip Музыка: Music paradise from Sander (25.07.09) [VA] (2009) MP3 Музыка: Record Deep Vol.3 (Mixed by Dj Kefir) [VA] (2009) MP3 Фильмы: Марфа и её щенки 2: Приключения продолжаются (2007) DVDRip Музыка: Popular (Mixed by Christopher S) [VA] (2009) MP3
Статистика
Яндекс.Метрика

Тетрадь смерти / Death Note (2017) WEB-DLRip

Примагнититься
проверено: dilat
Название:Тетрадь смерти / Death Note
Год выхода:2017
Жанр:Ужасы
Студия/Страна:США
Режиссер:Адам Вингард
В ролях:Маргарет Куэлли, Лейкит Стэнфилд, Уиллем Дефо, Нат Вулф, Шей Уигэм, Маси Ока, Майкл Шамус Уайлз, Пол МакДжиллион, Олена Медвид
Длительность:100 мин.
Перевод:Профессиональный (Многоголосый)
Рейтинг:
6.923 (13)
Способный студент Лайт находит загадочную тетрадь смерти, которая может убить любого, чье имя в нее вписать. Парень решает начать миссию по очистке улиц от преступников. Вскоре студент-линчеватель обнаруживает, что его преследует известный профайлер ФБР, скрывающийся под псевдонимом L.

Перевод: Профессиональный (многоголосый закадровый) [Good People], субтитры: отсутствуют

Спойлер:
ИНФО
Unique ID : 18616316906050239755954731668457629237 (0xE015F49B3C3EC1A5D77BD43E787A635)
Complete name : C:UsersЮрикDownloadsDeath.Note.2017_[MEGASHRA.COM].mkv
Format : Matroska
Format version : Version 2
File size : 1.45 GiB
Duration : 1h 40mn
Overall bit rate : 2 071 Kbps
Writing application : Lavf55.12.100
Writing library : Lavf55.12.100

Video
ID : 2
Format : AVC
Format/Info : Advanced Video Codec
Format profile : High@L4.1
Format settings, CABAC : Yes
Format settings, ReFrames : 2 frames
Codec ID : V_MPEG4/ISO/AVC
Duration : 1h 40mn
Bit rate : 1 646 Kbps
Width : 1 024 pixels
Height : 432 pixels
Display aspect ratio : 2.40:1
Frame rate mode : Constant
Frame rate : 23.976 fps
Color space : YUV
Chroma subsampling : 4:2:0
Bit depth : 8 bits
Scan type : Progressive
Bits/(Pixel*Frame) : 0.155
Stream size : 1.15 GiB (79%)
Language : English
Default : Yes
Forced : No

Audio
ID : 1
Format : AC-3
Format/Info : Audio Coding 3
Mode extension : CM (complete main)
Format settings, Endianness : Big
Codec ID : A_AC3
Duration : 1h 40mn
Bit rate mode : Constant
Bit rate : 384 Kbps
Channel(s) : 6 channels
Channel positions : Front: L C R, Side: L R, LFE
Sampling rate : 48.0 KHz
Bit depth : 32 bits
Compression mode : Lossy
Stream size : 275 MiB (19%)
Title : GoodPeople
Language : Russian
Default : Yes
Forced : No



Реклама отсутствует !
 
Кинопоиск  
Качество:WEB-DLRip
Формат:MKV
Видео:1024x432 (2.40:1), 23.976 fps, AVC MPEG-4 (H.264), High@L4.1 ~1646 kbps, 0.155 bit/pixel
Звук:48 kHz, AC3 Dolby Digital, 3/2 (L,C,R,l,r) + LFE ch, ~384 kbps
Размер:1.45 GB
Файлов:1 [Древовидный список] [Линейный список]
Sample-файл:Скачать
Релиз группы:Good People
Начало раздачи:5 Ноября 2017 в 17:31
Раздает:RazerE
Сидов: 0        Личеров: 0        Отзывов: 11
Скриншот 1 из 7. Разрешение 1024x432 Скриншот 2 из 7. Разрешение 1024x432 Скриншот 3 из 7. Разрешение 1024x432 Скриншот 4 из 7. Разрешение 1024x432 Скриншот 5 из 7. Разрешение 1024x432 Скриншот 6 из 7. Разрешение 1024x432 Скриншот 7 из 7. Разрешение 1024x432

Поблагодарили за раздачу (16):  denis1379, JuroK, dich72, sanyko, Udom84, accord79, slava_777, AlbertSP, balomyt, AlexCraven, banyzai, Chris635, DooM9998, RIFF2010, jlord, OLEGon19

Комментарии (11) Все на одной странице
5 Ноября 2017 в 17:47
Отсутствует   JuroK | Участник | Стаж: 10 г. 11 дн.
+4
Ребят .. Лично моё мнение ...
Кто не смотрел АНИМЕ " Тетрадь Смерти " ,
Лучше посмотрите АНИМЕ ! чем этот бред ..
Сам не фанат всяких Аниме .. но именно Аниме "Тетрадь Смерти" зацепил ... просто ШЕДЕВР !

P.S
но за труды раздающиму спасибо ))
___________________________________________
...Я сегодня не такой, как вчера - а вчера я был вообще никакой...
5 Ноября 2017 в 18:32
Отсутствует   cranegrandmedia | Участник | Стаж: 3 г. 3 мес. 30 дн.
+2
JuroK написал(а):
Ребят .. Лично моё мнение ...
Кто не смотрел АНИМЕ \" Тетрадь Смерти \" ,
Лучше посмотрите АНИМЕ ! чем этот бред ..
Сам не фанат всяких Аниме .. но именно Аниме \"Тетрадь Смерти\" зацепил ... просто ШЕДЕВР !

P.S
но за труды раздающиму спасибо ))

А теперь попробуй несколько часов шедевра запихнуть в полтора часа!!!!
5 Ноября 2017 в 18:56
Отсутствует   amfitos | Участник | Стаж: 8 г. 3 мес. 24 дн.
0
Я не смотрел аниме, и фильм очень понравился.
5 Ноября 2017 в 19:46
Отсутствует   yfnfifx | Участник | Стаж: 6 г. 4 мес. 4 дн.
-6
amfitos написал(а):
Я не смотрел аниме, и фильм очень понравился.

5 Ноября 2017 в 20:01
Отсутствует   SuperHappyMan | Участник | Стаж: 1 г. 1 мес. 1 день
-1
У Netflix бывают провалы, не часто, но бывают. Данная экранизация культовой Японской манги - полный провал. ИМХО.
___________________________________________
Некоторые учителя считают, что проводят нестандартные занятия, когда выводят класс на улицу. Ну а я зайду дальше: мы убьемся мескалином в пустыне!
6 Ноября 2017 в 00:56
Отсутствует   userix81 | Участник | Стаж: 7 г. 1 мес. 1 день
Удалил: dilat. Причина: Цитата без комментария
6 Ноября 2017 в 00:58
Отсутствует   userix81 | Участник | Стаж: 7 г. 1 мес. 1 день
0
cranegrandmedia написал(а):
JuroK написал(а):
Ребят .. Лично моё мнение ...
Кто не смотрел АНИМЕ \\\" Тетрадь Смерти \\\" ,
Лучше посмотрите АНИМЕ ! чем этот бред ..
Сам не фанат всяких Аниме .. но именно Аниме \\\"Тетрадь Смерти\\\" зацепил ... просто ШЕДЕВР !

P.S
но за труды раздающиму спасибо ))

А теперь попробуй несколько часов шедевра запихнуть в полтора часа!!!!

НУ Смотря КАК впихнуть! - а то фэйл выйдет на выходе.
___________________________________________
OK
6 Ноября 2017 в 04:20
Отсутствует   25toliverus | Участник | Стаж: 9 г. 10 мес. 2 дн.
+1
>Жанр: Ужасы
Метко подмечено, правда к ужасам этот фильм можно отнести только в худшем смысле этого слова.
6 Ноября 2017 в 21:23
Отсутствует   YURIELLL | Участник | Стаж: 8 г. 1 мес. 8 дн.
0
Будет лицензия ?? чистый звук ?
7 Ноября 2017 в 16:48
Отсутствует   dark_alien | Участник | Стаж: 8 г. 20 дн.
0
фильм фигня...
черный Л, черный голубой рейнджер, черный стелок, совсем уже америкосы двинулись башкой по полной со своей толерантностью
8 Ноября 2017 в 08:22
Отсутствует   kanagat_t | Участник | Стаж: 4 г. 9 мес. 24 дн.
0
amfitos написал(а):
Я не смотрел аниме, и фильм очень понравился.

теперь посмотри аниме и посуди сам!
___________________________________________
Чтоб добавить комментарий нужна
 
Опрос  ↑↓
Умеете ли вы обходить блокировки сайтов?
  
  
  
  
 
Loading...
 
Кто на сайте  ↑↓
Сегодня ДР у ...  ↑↓
Реклама
 
Загрузка...