Меню пользователя
Реклама
Лучшие за месяц  ↑↓
    Лучшие аплоадеры фильмов:
  • 1. dilat  (118)
    Лучшие аплоадеры музыки:
  • 1. dilat  (114)
    Лучшие аплоадеры игр:
  • 1. dilat  (55)
    Лучшие аплоадеры сериалов:
  • 1. zjuk  (56)
    Лучшие блогеры:
  • 1. xotabich79  (+3)
Обсуждают в блогах  ↑↓
Случайные раздачи  ↑↓
Сериалы: Темный ангел (сезон 1) (эпизод 21) / Dark Angel (2001) DVDRip Музыка: Hip Hop TV  - 6 мая - Ант (2009) MP3 Музыка: Бабушкины сказки №3 [VA] (2006) MP3 Музыка: DEPECHE MODE - No Road Vol.3 (Bootlegs) (2008) MP3 Музыка: Mr. Hudson - Straight No Chaser (2009) MP3 Фильмы: Шангри Ла (эпизод 1-24) (Rus) / Shangri La (2009) HDTV-Rip Музыка: House Summer love 2009 Powered by Viva-2CD 2009 [VA] (2009) MP3 Фильмы: Люблю тебя до смерти (2008) DVDRip Фильмы: 9 Рота (2005) BDRip Сериалы: Покушение (эпизод 1-3 из 8)  (2010) DVDRip
Статистика
Яндекс.Метрика

Планета Короля Зверей / Jyu Oh Sei [720p] [AVC] (2006) HDTV-Rip

Примагнититься
проверено: zenit_00
Название:Планета Короля Зверей / Jyu Oh Sei
Год выхода:2006
Жанр:Anime
Студия/Страна:Bones / Япония
Режиссер:Нисикиори Хироси
Длительность:242 мин.
Перевод:Оригинал с субтитрами
Теги:[720p] [AVC]
Рейтинг:
3.769 (13)
Информация о фильме
Русское название: Планета Короля Зверей
Оригинальное название: Jyu Oh Sei
Страна: Япония
Студия: Bones
Год выпуска: 2006
Жанр: Мистика, Ужасы, Триллер, Эротика.
Перевод: Оригинал
Режиссер: Нисикиори Хироси
Работа над релизом: [*]Nod33Eset(retvil) [01-11]
[*]StreetDespair [01-11]
Исходник: ССTV 2016 Год

О фильме:
Далекое будущее... Космическая станция в иной звездной системе. Главные герои - два брата-близнеца. Один - напористый, умный, сильный физически и психологически. Второй - просто размазня. Отец братьев - очень большой человек в правительстве. Придя домой, братья обнаруживают, что их отец и мать мертвы. Их самих люди в форме оглушают, сажают в спускаемый аппарат и отправляют на планету-тюрьму, кишащую хищными растениями. Чтобы выжить, нужно объединить четыре противоборствующие планетные группировки и подняться на башню, где, судя по всему, находится что-то вроде телепортера.

Продолжительность: 11 из 11 серий по ~00:22:00
Качество видео: HDTVRip 480p-HQ (Original Color)
Видеокодек: AVC|H.264
Формат: MKV
Битрейт видео: ~5000 Kbps
Размер кадра: 1280x720
Аудиокодек: AC3
Битрейт аудио: 320 kbps
Аудио #1: Японский (48 kHz, AC3 Dolby Digital, 2 channels, ~320 kbps) — Оригинал [Japanese]
Субтитры #1: Russian Subtitles
Субтитры #2: English Subtitles

Эпизоды:

01. Судьба / Fate
02. Ринг Охра / Ochre Ring
03. Спутник / Comrade
04. Вызов / Challenge
05. Дуэль / Duel
06. Белый волк / White Wolf Demons
07. Независимость / Independence
08. Недра / Depths
09. Царь-тварь / Beast King
10. Кошмар / Nightmare
11. Надежда / Desire


MediaInfo

General
Unique ID : 246834875478510034528332970613384337386 (0xB9B2AAF4F6243D8F986B2C8FB8EAD7EA)
Complete name : Jyu.Oh.Sei.s01e01.HDTVRip.720p.LQ.Original.Color.Japanese.SDIncorporation.mkv
Format : Matroska
Format version : Version 4 / Version 2
File size : 1 023 MiB
Duration : 22 min 58 s
Overall bit rate : 6 224 kb/s
Movie name : Jyu Oh Sei Episode 1 [HDTVRip 720p-LQ] (Original Color) © SDIncorporation
Encoded date : UTC 2017-02-23 20:29:42
Writing application : mkvmerge v9.9.0 ('Pick Up') 64bit
Writing library : libebml v1.3.4 + libmatroska v1.4.5
Cover : Yes
Attachments : cover.png

Video
ID : 1
Format : AVC
Format/Info : Advanced Video Codec
Format profile : Main@L3.1
Format settings, CABAC : Yes
Format settings, ReFrames : 1 frame
Codec ID : V_MPEG4/ISO/AVC
Duration : 22 min 58 s
Bit rate : 5 886 kb/s
Nominal bit rate : 3 000 kb/s
Width : 1 280 pixels
Height : 720 pixels
Display aspect ratio : 16:9
Frame rate mode : Variable
Frame rate : 23.976 (23976/1000) FPS
Original frame rate : 30.000 FPS
Color space : YUV
Chroma subsampling : 4:2:0
Bit depth : 8 bits
Scan type : Progressive
Bits/(Pixel*Frame) : 0.266
Stream size : 968 MiB (95%)
Title : Video
Writing library : x264 core 133 r2334 a3ac64b
Encoding settings : cabac=0 / ref=3 / deblock=1:0:0 / analyse=0x3:0x113 / me=umh / subme=9 / psy=1 / psy_rd=1.00:0.00 / mixed_ref=1 / me_range=32 / chroma_me=1 / trellis=0 / 8x8dct=1 / cqm=0 / deadzone=21,11 / fast_pskip=0 / chroma_qp_offset=-2 / threads=12 / lookahead_threads=1 / sliced_threads=0 / nr=0 / decimate=1 / interlaced=0 / bluray_compat=0 / constrained_intra=0 / bframes=3 / b_pyramid=0 / b_adapt=2 / b_bias=0 / direct=3 / weightb=0 / open_gop=0 / weightp=0 / keyint=250 / keyint_min=25 / scenecut=40 / intra_refresh=0 / rc_lookahead=40 / rc=2pass / mbtree=1 / bitrate=3000 / ratetol=1.0 / qcomp=0.60 / qpmin=0 / qpmax=69 / qpstep=4 / cplxblur=20.0 / qblur=0.5 / vbv_maxrate=9500 / vbv_bufsize=9500 / nal_hrd=none / ip_ratio=1.40 / aq=1:1.00
Default : Yes
Forced : No

Audio
ID : 2
Format : AC-3
Format/Info : Audio Coding 3
Format settings, Endianness : Big
Codec ID : A_AC3
Duration : 22 min 58 s
Bit rate mode : Constant
Bit rate : 320 kb/s
Channel(s) : 2 channels
Channel positions : Front: L R
Sampling rate : 48.0 kHz
Frame rate : 31.250 FPS (1536 spf)
Bit depth : 16 bits
Compression mode : Lossy
Stream size : 52.6 MiB (5%)
Title : Japanese
Language : Japanese
Service kind : Complete Main
Default : Yes
Forced : No

Text #1
ID : 3
Format : ASS
Codec ID : S_TEXT/ASS
Codec ID/Info : Advanced Sub Station Alpha
Duration : 22 min 57 s
Bit rate : 124 b/s
Count of elements : 276
Compression mode : Lossless
Stream size : 20.9 KiB (0%)
Title : Russian Subtitles
Language : Russian
Default : Yes
Forced : No

Text #2
ID : 4
Format : ASS
Codec ID : S_TEXT/ASS
Codec ID/Info : Advanced Sub Station Alpha
Duration : 22 min 58 s
Bit rate : 131 b/s
Count of elements : 387
Compression mode : Lossless
Stream size : 22.1 KiB (0%)
Title : English Subtitles
Language : English
Default : No
Forced : No
Качество:HDTV-Rip
Формат:MKV
Видео:AVC|H.264 MKV ~5000 Kbps 1280x720
Звук:48 kHz, AC3 Dolby Digital, 2 channels, ~320 kbps
Размер:10.99 GB
Файлов:11 [Древовидный список] [Линейный список]
Релиз группы:SDIncorporation
Начало раздачи:18 Марта 2017 в 16:01
Раздает:Nod33Eset
Сидов: 0        Личеров: 0        Отзывов: 2
Скриншот 1 из 3. Разрешение 1280x720 Скриншот 2 из 3. Разрешение 1280x720 Скриншот 3 из 3. Разрешение 1280x720

Поблагодарили за раздачу (4):  banyzai, Aspo, DAGAZZZ, akidzi

Комментарии (2) Все на одной странице
18 Марта 2017 в 21:11
Отсутствует   sierra | Участник | Стаж: 10 г. 6 мес. 22 дн.
+2
Неплохой мультик.
19 Марта 2017 в 00:29
Отсутствует   blackflame13 | Участник | Стаж: 7 г. 7 мес. 24 дн.
Удалил: marazmatik. Причина: оскорбление другого пользователя. Бан
Чтоб добавить комментарий нужна
 
Опрос  ↑↓
Умеете ли вы обходить блокировки сайтов?
  
  
  
  
 
Loading...
 
Кто на сайте  ↑↓
Сегодня ДР у ...  ↑↓
Реклама
 
Загрузка...