Меню пользователя
Реклама
Лучшие за месяц  ↑↓
    Лучшие аплоадеры фильмов:
  • 1. zjuk  (26)
    Лучшие аплоадеры музыки:
  • 1. Serj_Tan  (83)
    Лучшие аплоадеры игр:
  • 1. dilat  (35)
    Лучшие аплоадеры сериалов:
  • 1. zjuk  (66)
    Лучшие блогеры:
  • 1. Zlosem  (+47)
Обсуждают в блогах  ↑↓
Случайные раздачи  ↑↓
Фильмы: схватка / Heat (1995) DVD-9 Фильмы: Папаша с афиши / Billboard Dad (1998) VHSRip Музыка: Djosos Krost - No Sign Of Bad (2005) MP3 Фильмы: Мясорубка / Hack (2007) DVD-5 Фильмы: Элегантная Вселенная (Eng) / The Elegant Universe (2003) DVDRip Фильмы: Синоптик  / Weather Girl (2009) SATRip Сериалы: Части тела (сезон 7) (эпизод 1) / Nip/Tuck (2010) HDTV-Rip Фильмы: Взращивание / Growth (2009) DVDRip Фильмы: Рэкетир  (2007) BDRip Музыка: Trance Sunrice #1 [VA] (2010) MP3
Статистика
Яндекс.Метрика

Босоногий Гэн 2 / Hadashi no Gen 2 [720p] [AVC] (1986) HDTV-Rip

Примагнититься
проверено: zenit_00
Название:Босоногий Гэн 2 / Hadashi no Gen 2
Год выхода:1986
Жанр:Anime
Студия/Страна:Madhouse / Япония
Режиссер:Фукусима Хироюки, Эбата Хироюки, Хирата Тосио
Длительность:85 мин.
Перевод:Оригинал с субтитрами
Теги:[720p] [AVC]
Рейтинг:
3 (9)
Информация о фильме
Русское название: Босоногий Гэн 2
Оригинальное название: BHadashi no Gen 2
Страна: Япония
Студия: Madhouse

Год выпуска: 1986
Жанр: Драма, История, Война
Перевод: Оригинал
Режиссер: Фукусима Хироюки, Эбата Хироюки, Хирата Тосио
Работа над релизом: [*]Nod33Eset(retvil)
[*]StreetDespair
[*]Jonny_NAT
[*]69SexyMan
Исходник: ССTV 2016 Год

О фильме:
После событий первой части прошло 3 года. Гэн уже подросток, которому приходится выживать в разгар послевоенной разрухи, голода и при этом заботится о больной матери. Улицы полны детей-беспризорников. Он находит новых друзей, у каждого из которых своя история и свои воспоминания об ужасах прошлого...

Продолжительность: 01:25:00
Качество видео: HDTVRip-720p (Original Color)
Видеокодек: AVC|H.264
Формат: MKV
Битрейт видео: ~4500 Kbps
Размер кадра: 960x720
Аудиокодек: AC3
Битрейт аудио: 320 kbps
Аудио #1: Японский (48 kHz, AC3 Dolby Digital, 2 channels, ~320 kbps) — Оригинальный [Japanese]
Субтитры #1: Russian Subtitles

MI:

General
Unique ID : 211381872865394953909009428148525900717 (0x9F06AAF936EB9E048BFDD1DEB57AA3AD)
Complete name : Hadashi.no.Gen.2.HDTVRip.720p.LQ.Original.Color.Japanese.SDIncorporation.mkv
Format : Matroska
Format version : Version 4 / Version 2
File size : 2.83 GiB
Duration : 1 h 25 min
Overall bit rate mode : Variable
Overall bit rate : 4 749 kb/s
Movie name : Hadashi no Gen 2 [HDTVRip 720p-LQ] (Original Color) © SDIncorporation
Encoded date : UTC 2017-01-30 19:22:41
Writing application : mkvmerge v9.8.0 ('Kuglblids') 64bit
Writing library : libebml v1.3.4 + libmatroska v1.4.5
Cover : Yes
Attachments : cover.png

Video
ID : 1
Format : AVC
Format/Info : Advanced Video Codec
Format profile : Main@L3.1
Format settings, CABAC : Yes
Format settings, ReFrames : 3 frames
Codec ID : V_MPEG4/ISO/AVC
Duration : 1 h 25 min
Bit rate mode : Variable
Bit rate : 4 423 kb/s
Maximum bit rate : 16.0 Mb/s
Width : 960 pixels
Height : 720 pixels
Display aspect ratio : 4:3
Original display aspect rat : 16:9
Frame rate mode : Variable
Frame rate : 23.976 (23976/1000) FPS
Original frame rate : 25.000 FPS
Standard : NTSC
Color space : YUV
Chroma subsampling : 4:2:0
Bit depth : 8 bits
Scan type : Progressive
Bits/(Pixel*Frame) : 0.267
Stream size : 2.64 GiB (93%)
Title : Video
Default : Yes
Forced : No
Color range : Limited

Audio
ID : 2
Format : AC-3
Format/Info : Audio Coding 3
Mode extension : CM (complete main)
Format settings, Endianness : Big
Codec ID : A_AC3
Duration : 1 h 25 min
Bit rate mode : Constant
Bit rate : 320 kb/s
Channel(s) : 2 channels
Channel positions : Front: L R
Sampling rate : 48.0 kHz
Frame rate : 31.250 FPS (1536 spf)
Bit depth : 16 bits
Compression mode : Lossy
Stream size : 195 MiB (7%)
Title : Japanese
Language : Japanese
Default : Yes
Forced : No

Text
ID : 3
Format : UTF-8
Codec ID : S_TEXT/UTF8
Codec ID/Info : UTF-8 Plain Text
Duration : 1 h 25 min
Bit rate : 71 b/s
Count of elements : 975
Stream size : 45.0 KiB (0%)
Title : Russian Subtitles
Language : Russian
Default : Yes
Forced : No

Menu
00:00:00.000 : :Chapter 1
00:05:39.968 : :Chapter 2
00:07:23.968 : :Chapter 3
00:14:44.569 : :Chapter 4
00:18:03.370 : :Chapter 5
00:25:00.071 : :Chapter 6
00:28:53.939 : :Chapter 7
00:37:24.039 : :Chapter 8
00:46:08.840 : :Chapter 9
00:54:48.107 : :Chapter 10
01:06:51.908 : :Chapter 11
01:17:47.342 : :Chapter 12
01:22:36.210 : :Chapter 13
01:25:09.310 : :Chapter 14
01:25:09.810 : :Chapter 15
01:25:10.310 : :Chapter 16
Качество:HDTV-Rip
Формат:MKV
Видео:AVC|H.264 MKV ~4500 Kbps 960x720
Звук:48 kHz, AC3 Dolby Digital, 2 channels, ~320 kbps
Размер:2.83 GB
Файлов:1 [Древовидный список] [Линейный список]
Релиз группы:SDIncorporation
Начало раздачи:18 Марта 2017 в 15:57
Раздает:Nod33Eset
Сидов: 0        Личеров: 0        Отзывов: 4
Скриншот 1 из 3. Разрешение 960x720 Скриншот 2 из 3. Разрешение 960x720 Скриншот 3 из 3. Разрешение 960x720

Комментарии (4) Все на одной странице
18 Марта 2017 в 17:43
Отсутствует   AvatarNAVIgator | Участник | Стаж: 2 г. 10 мес. 5 дн.
0
С первой частью не сравнить.
18 Марта 2017 в 22:39
Отсутствует   serlarkin | Участник | Стаж: 9 г. 4 мес. 10 дн.
0
Первая часть была крута для того времени,ещё был корабль-призрак.Сейчас уже не так воспринимается как в детстве,а жаль
19 Марта 2017 в 00:44
Отсутствует   Kivi575 | Участник | Стаж: 7 г. 9 мес. 18 дн.
0
Кто знает где можно скачать первую часть с советском дубляже?
19 Марта 2017 в 20:41
Отсутствует   BezMozg | Участник | Стаж: 8 г. 1 мес. 24 дн.
0
Kivi575 написал(а):
Кто знает где можно скачать первую часть с советском дубляже?
К сожалению скорее всего нигде. Я в своё время очень долго искал. Ничего нет, только последняя сцена на ютьюбе в кое-каковом качестве присутствует. Разве что у кого-то завалялась старая видеокассета. Я бы купил кстати. Её можно было бы оцифровать, вытащить звук, почистить его и положить на имеющиеся в сети 1080р файлы.
___________________________________________
Жизнь-хорошая штука,а хорошее,оно обычно быстро кончается
Чтоб добавить комментарий нужна
 
Опрос  ↑↓
Умеете ли вы обходить блокировки сайтов?
  
  
  
  
 
Loading...
 
Кто на сайте  ↑↓
Всего 1350, Гостей 1335,
Зарегистрированных 15


Bесь список...
Сегодня ДР у ...  ↑↓
Реклама
 
Загрузка...