Меню пользователя
Реклама
Лучшие за месяц  ↑↓
    Лучшие аплоадеры фильмов:
  • 1. dilat  (103)
    Лучшие аплоадеры музыки:
  • 1. kandobrik  (100)
    Лучшие аплоадеры игр:
  • 1. dilat  (28)
    Лучшие аплоадеры сериалов:
  • 1. Ressa  (63)
    Лучшие блогеры:
  • 1. dilat  (+10)
Обсуждают в блогах  ↑↓
Случайные раздачи  ↑↓
Фильмы: Армитаж - Двойная матрица / Armitage - Dual Matrix (2002) DVDRip Фильмы: Поэма о крыльях (две серии из двух) (1979) TVRip Сериалы: Псевдоним Албанец 2 (эпизод 13-14) (2008) SATRip Фильмы: Исторические исследования: Секретные дневники Гитлера / In search of history: Hitlers secret diaries (1999) DVD-5 Фильмы: Человек и Творец (2006) DVDRip Музыка: Oomph! - Monster [Limited Edition] (2008) MP3 Фильмы: Почетное подразделение (эпизод 2) (RUS) / Kiddy Girl-and (2009) HDTV-Rip Сериалы: Крах фаворита (эпизод 1-8) (2009) DVDRip Музыка: D.Masta - White Star (2008) (2008) FLAC Фильмы:  Ромео с обочины / Roadside Romeo (2008) DVD-9
Статистика
Яндекс.Метрика

Продюсеры / The Producers [720p] (1968) BDRip

Примагнититься
проверено: Robbiecool
Название:Продюсеры / The Producers
Год выхода:1968
Жанр:Мюзикл
Студия/Страна:США, Crossbow Productions, Embassy Pictures, Springtime Productions
Режиссер:Мэл Брукс
В ролях:Зеро Мостел, Джин Уайлдер, Дик Шоун, Кеннет Марс, Ли Мередит, Кристофер Хьюитт, Андреас Вуцинас, Эстель Уинвуд, Рене Тейлор, Дэвид Пэч
Длительность:89 мин.
Перевод:Любительский (Многоголосый)
Теги:[720p]
Рейтинг:
10 (3)
Жанр : Мьюзикл, Комедия

Неудачливый бродвейский театральный продюсер уже довольно долгое время перебивается «с хлеба на квас», старается срубить «копейку» даже в самых невероятных ситуациях… хотя, по большей части, получается так себе.

Однажды на его горизонте появляется затюканный и невзрачный бухгалтеришка, который подкидывает сумасшедшую на первый взгляд идею, реализация которой позволит им перестать думать о будущем в мрачных, апокалиптических тонах…


Продолжительность : 89:22 мин.

Качество видео : BDRip
Перевод : Многоголосый закадровый (SomeWax)
Язык субтитров : Английский
Вид субтитров : Вшитые отключаемые

Видео : AVC/H.264, 1280x692, ~4 042 Kbps

Аудио 1 : Dolby AC3 48000Hz stereo 160 Kbps 2ch Русский
Аудио 2 : Dolby AC3 48000Hz 640 Kbps 6ch Английский

MediaInfo :

Код:

General
Unique ID : 227916910538839375449270099119039176108 (0xAB773345CE36C371A7CA341B263DDDAC)
Complete name : The.Producers.1968.BDRip.720p.AC3.mkv
Format : Matroska
Format version : Version 4 / Version 2
File size : 3.02 GiB
Duration : 1h 29mn
Overall bit rate : 4 844 Kbps
Encoded date : UTC 2015-03-23 07:09:01
Writing application : mkvmerge v7.4.0 ('Circles') 64bit built on Dec 12 2014 12:19:56
Writing library : libebml v1.3.0 + libmatroska v1.4.1
_STATISTICS_WRITING_APP : mkvmerge v7.4.0 ('Circles') 64bit built on Dec 12 2014 12:19:56
_STATISTICS_WRITING_DATE_UTC : 2015-03-23 07:09:01
_STATISTICS_TAGS : BPS DURATION NUMBER_OF_FRAMES NUMBER_OF_BYTES
DURATION : 01:28:28.838000000
NUMBER_OF_FRAMES : 1257
NUMBER_OF_BYTES : 39772

Video
ID : 1
Format : AVC
Format/Info : Advanced Video Codec
Format profile : High@L5.0
Format settings, CABAC : Yes
Format settings, ReFrames : 16 frames
Codec ID : V_MPEG4/ISO/AVC
Duration : 1h 29mn
Bit rate : 4 042 Kbps
Width : 1 280 pixels
Height : 692 pixels
Display aspect ratio : 1.85:1
Frame rate mode : Constant
Frame rate : 23.976 fps
Color space : YUV
Chroma subsampling : 4:2:0
Bit depth : 8 bits
Scan type : Progressive
Bits/(Pixel*Frame) : 0.190
Stream size : 2.46 GiB (81%)
Writing library : x264 core 142 r2431 ac76440
Encoding settings : cabac=1 / ref=16 / deblock=1:-3:-3 / analyse=0x3:0x113 / me=umh / subme=11 / psy=1 / psy_rd=1.00:0.00 / mixed_ref=1 / me_range=32 / chroma_me=0 / trellis=2 / 8x8dct=1 / cqm=0 / deadzone=21,11 / fast_pskip=1 / chroma_qp_offset=-2 / threads=12 / lookahead_threads=1 / sliced_threads=0 / nr=0 / decimate=0 / interlaced=0 / bluray_compat=0 / constrained_intra=0 / bframes=16 / b_pyramid=2 / b_adapt=1 / b_bias=0 / direct=1 / weightb=0 / open_gop=0 / weightp=2 / keyint=240 / keyint_min=23 / scenecut=40 / intra_refresh=0 / rc_lookahead=40 / rc=2pass / mbtree=1 / bitrate=4042 / ratetol=1.0 / qcomp=0.60 / qpmin=10 / qpmax=51 / qpstep=4 / cplxblur=20.0 / qblur=0.5 / ip_ratio=1.40 / aq=1:1.00
Default : Yes
Forced : No

Audio #1
ID : 2
Format : AC-3
Format/Info : Audio Coding 3
Mode extension : CM (complete main)
Format settings, Endianness : Big
Codec ID : A_AC3
Duration : 1h 29mn
Bit rate mode : Constant
Bit rate : 160 Kbps
Channel(s) : 2 channels
Channel positions : Front: L R
Sampling rate : 48.0 KHz
Bit depth : 16 bits
Compression mode : Lossy
Stream size : 102 MiB (3%)
Title : Russian
Language : Russian
Default : Yes
Forced : No

Audio #2
ID : 3
Format : AC-3
Format/Info : Audio Coding 3
Mode extension : CM (complete main)
Format settings, Endianness : Big
Codec ID : A_AC3
Duration : 1h 29mn
Bit rate mode : Constant
Bit rate : 640 Kbps
Channel(s) : 6 channels
Channel positions : Front: L C R, Side: L R, LFE
Sampling rate : 48.0 KHz
Bit depth : 16 bits
Compression mode : Lossy
Stream size : 409 MiB (13%)
Title : English
Language : English
Default : No
Forced : No

Text
ID : 4
Format : UTF-8
Codec ID : S_TEXT/UTF8
Codec ID/Info : UTF-8 Plain Text
Language : English
Default : Yes
Forced : No
 
Кинопоиск  
Качество:BDRip
Формат:MKV
Видео:AVC / H.264, 1280x692, ~4 042 Kbps
Звук:Аудио 1: Dolby AC3 48000Hz stereo 160 Kbps 2ch Русский. Аудио 2: Dolby AC3 48000Hz 640 Kbps 6ch Английский
Размер:3.02 GB
Файлов:1 [Древовидный список] [Линейный список]
Sample-файл:Скачать
Начало раздачи:29 Марта 2015 в 15:23
Раздает:Sokolovi4
Сидов: 0        Личеров: 0        Отзывов: 0
Скриншот 1 из 6. Разрешение 1280x692 Скриншот 2 из 6. Разрешение 1280x692 Скриншот 3 из 6. Разрешение 1280x692 Скриншот 4 из 6. Разрешение 1280x692 Скриншот 5 из 6. Разрешение 1280x692 Скриншот 6 из 6. Разрешение 1280x692

Поблагодарили за раздачу (6):  dolphin1313, Robbiecool, vvolpert, skullptor, azor67, Vash_the_Stampede

Комментарии (0) Все на одной странице
Чтоб добавить комментарий нужна
 
Опрос  ↑↓
Умеете ли вы обходить блокировки сайтов?
  
  
  
  
 
Loading...
 
Кто на сайте  ↑↓
Сегодня ДР у ...  ↑↓
Реклама
 
Загрузка...