Меню пользователя
Реклама
Лучшие за месяц  ↑↓
    Лучшие аплоадеры фильмов:
  • 1. dilat  (109)
    Лучшие аплоадеры музыки:
  • 1. kandobrik  (108)
    Лучшие аплоадеры игр:
  • 1. dilat  (31)
    Лучшие аплоадеры сериалов:
  • 1. Ressa  (70)
    Лучшие блогеры:
  • 1. dilat  (+10)
Обсуждают в блогах  ↑↓
Случайные раздачи  ↑↓
Фильмы: Немезида / Nemesis (1993) DVDRip Фильмы: Ограбление на Бейкер-Стрит / The Bank Job (2008) BDRip Музыка: Nickelback - Follow You Home (2007) MP3 Фильмы: Нокаут / Punch (2002) DVDRip Фильмы: Старик и море / The Old Man and the Sea (1999) DVDRip Фильмы: Худшие тюрьмы Америки  / Lockdown (2007) SATRip Музыка: MFM Collection. Vol 1. Breath of Spring [VA] (2009) MP3 Музыка: Самый Зимний Снегохит 50/50 [VA] (2010) MP3 Фильмы: Большое ограбление поезда / The great train robbery (1903) CamRip Музыка: Roy Rosenfeld - Critical Error (2010) MP3
Статистика
Яндекс.Метрика

Бестселлер / Best Seller [720p] (1987) HDTV-Rip

Примагнититься
проверено: Robbiecool
Название:Бестселлер / Best Seller
Год выхода:1987
Жанр:Детектив
Студия/Страна:США, Orion Pictures
Режиссер:Джон Флинн
В ролях:Джеймс Вудс, Брайан Деннехи, Виктория Теннант, Эллисон Бэлсон, Пол Шенар, Джордж Ку
Длительность:91 мин.
Перевод:Дублированный перевод (дубляж)
Теги:[720p]
Рейтинг:
10 (2)
«Бестселлер» — американский триллер 1987 года по сценарию Ларри Коэна.

1972 год, Лос-Анджелес. Трое бандитов в масках зверски убивают троих полицейских и ранят четвертого — Денниса Митчума (Деннехи).
Спустя пятнадцать лет Митчум — уже известный писатель, автор детективных романов. Правда, сейчас он испытывает материальные трудности, творчество как-то не приносит ни духовного, ни материального удовлетворения. После смерти жены ему приходится заботиться о дочери, переживания заставляют его всё чаще прикоснуться к бутылке, новые сюжеты в голову не идут.
В эту минуту он стал объектом внимания бывшего киллера Клива (Джеймс Вудс). Тот решил осчастливить мир своими воспоминаниями о преступлениях своего бывшего работодателя-магната Дэвида Мэдлока. И обратился за помощью к удачливому (как полагает Клив) писателю и человеку, который не понаслышке знает о криминальном мире…

Дата мировой премьеры : 25.09.1987

Продолжительность : 01:31:23
Качество видео : HDTVRip
Перевод : Двуголосый закадровый НТВ+, многоголосый закадровый ТВ5, одноголосый закадровый
Язык субтитров : Английский
Вид субтитров : Вшитые отключаемые
Видеокодек : MPEG-4 AVC/H.264
Битрейт видео : ~4180 kbps
Размер кадра : 1280x720
Аудио 1 : Русский; AC3, 48.0, KHz 2ch., 192kbps. Двуголосый закадровый НТВ+
Аудио 2 : Русский; AC3, 48.0, KHz 2ch., 192kbps. Многоголосый закадровый ТВ5
Аудио 3 : Русский; AC3, 48.0, KHz 2ch., 192kbps. Одноголосый закадровый
Аудио 4 : Английский; AC3, 48.0, KHz 2ch., 192kbps. Оригинальная аудиодорожка
Mediainfo :
Общее
Уникальный идентификатор : 205020183642946226004394799870452708326 (0x9A3D737A83B27BF2A45B4DC79C8433E6)
Полное имя : K:-Брайан Деннехи_Brian DennehyБестселлер_Best SellerБестселлер_HDTV720p.mkv
Формат : Matroska
Версия формата : Version 2
Размер файла : 3,23 Гбайт
Продолжительность : 1 ч. 31 м.
Общий поток : 5057 Кбит/сек
Название фильма : Release for Topmost
Дата кодирования : UTC 2015-03-20 21:40:45
Программа кодирования : mkvmerge v6.2.0 ('Promised Land') built on Apr 28 2013 12:22:01
Библиотека кодирования : Lavf55.12.100

Видео
Идентификатор : 1
Формат : AVC
Формат/Информация : Advanced Video Codec
Профиль формата : Main@L3.2
Параметр CABAC формата : Да
Параметр ReFrames формата : 2 кадра
Параметр GOP формата : M=1, N=12
Идентификатор кодека : V_MPEG4/ISO/AVC
Продолжительность : 1 ч. 31 м.
Битрейт : 4188 Кбит/сек
Ширина : 1280 пикселей
Высота : 720 пикселей
Соотношение сторон : 16:9
Режим частоты кадров : Постоянный
Частота кадров : 50,000 кадров/сек
Цветовое пространство : YUV
Субдискретизация насыщенности : 4:2:0
Битовая глубина : 8 бит
Тип развёртки : Прогрессивная
Бит/(Пиксели*Кадры) : 0.091
Размер потока : 2,67 Гбайт (83%)
Заголовок : Бестселлер.HDTV 720p
Язык : English
Default : Да
Forced : Нет

Аудио #1
Идентификатор : 2
Формат : AC-3
Формат/Информация : Audio Coding 3
Расширение режима : CM (complete main)
Параметр Endianness формата : Big
Идентификатор кодека : A_AC3
Продолжительность : 1 ч. 31 м.
Вид битрейта : Постоянный
Битрейт : 192 Кбит/сек
Каналы : 2 канала
Расположение каналов : Front: L R
Частота : 48,0 КГц
Битовая глубина : 16 бит
Метод сжатия : С потерями
Размер потока : 126 Мбайт (4%)
Заголовок : Профессиональный (двухголосый закадровый) НТВ+
Язык : Russian
Default : Да
Forced : Нет

Аудио #2
Идентификатор : 3
Формат : AC-3
Формат/Информация : Audio Coding 3
Расширение режима : CM (complete main)
Параметр Endianness формата : Big
Идентификатор кодека : A_AC3
Продолжительность : 1 ч. 31 м.
Вид битрейта : Постоянный
Битрейт : 192 Кбит/сек
Каналы : 2 канала
Расположение каналов : Front: L R
Частота : 48,0 КГц
Битовая глубина : 16 бит
Метод сжатия : С потерями
Размер потока : 126 Мбайт (4%)
Заголовок : Профессиональный (многоголосый закадровый) ТВ5
Язык : Russian
Default : Нет
Forced : Нет

Аудио #3
Идентификатор : 4
Формат : AC-3
Формат/Информация : Audio Coding 3
Расширение режима : CM (complete main)
Параметр Endianness формата : Big
Идентификатор кодека : A_AC3
Продолжительность : 1 ч. 31 м.
Вид битрейта : Постоянный
Битрейт : 192 Кбит/сек
Каналы : 2 канала
Расположение каналов : Front: L R
Частота : 48,0 КГц
Битовая глубина : 16 бит
Метод сжатия : С потерями
Размер потока : 126 Мбайт (4%)
Заголовок : Одноголосый закадровый
Язык : Russian
Default : Нет
Forced : Нет

Аудио #4
Идентификатор : 5
Формат : AC-3
Формат/Информация : Audio Coding 3
Расширение режима : CM (complete main)
Параметр Endianness формата : Big
Идентификатор кодека : A_AC3
Продолжительность : 1 ч. 31 м.
Вид битрейта : Постоянный
Битрейт : 192 Кбит/сек
Каналы : 2 канала
Расположение каналов : Front: L R
Частота : 48,0 КГц
Битовая глубина : 16 бит
Метод сжатия : С потерями
Размер потока : 126 Мбайт (4%)
Заголовок : Original
Язык : English
Default : Нет
Forced : Нет

Текст
Идентификатор : 6
Формат : UTF-8
Идентификатор кодека : S_TEXT/UTF8
Идентификатор кодека/Информация : UTF-8 Plain Text
Заголовок : SRT
Язык : English
Default : Нет
Forced : Нет
 
Кинопоиск  
Качество:HDTV-Rip
Формат:MKV
Видео:MPEG-4 AVC/H.264, ~4180 kbps, 1280x720
Звук:Русский; AC3, 48.0, KHz 2ch., 192kbps. Двуголосый закадровый НТВ+, Русский; AC3, 48.0, KHz 2ch., 192kbps. Многоголосый закадровый ТВ5
Размер:3.23 GB
Файлов:1 [Древовидный список] [Линейный список]
Релиз группы:Topmost
Начало раздачи:27 Марта 2015 в 20:39
Раздает:Sokolovi4
Сидов: 0        Личеров: 0        Отзывов: 4
Скриншот 1 из 8. Разрешение 1280x720 Скриншот 2 из 8. Разрешение 1280x720 Скриншот 3 из 8. Разрешение 1280x720 Скриншот 4 из 8. Разрешение 1280x720 Скриншот 5 из 8. Разрешение 1280x720 Скриншот 6 из 8. Разрешение 1280x720 Скриншот 7 из 8. Разрешение 1280x720 Скриншот 8 из 8. Разрешение 1280x720

Поблагодарили за раздачу (6):  martax, Robbiecool, Davidian, vvolpert, odessa83234, Serj_Tan

Комментарии (4) Все на одной странице
27 Марта 2015 в 21:12
Отсутствует   fataI1ty | Участник | Стаж: 11 г. 2 мес. 7 дн.
+1
Гаврилова/Живова присутствует перевод ?
27 Марта 2015 в 21:42
Отсутствует   Serj_Tan | Участник | Стаж: 5 г. 10 мес. 9 дн.
+1
___________________________________________
Когда мы все попадем в тюрьму за скачивание музыки, надеюсь нас рассадят по жанрам...
27 Марта 2015 в 22:10
Отсутствует   Sokolovi4 | Модератор | Стаж: 7 г. 8 мес. 28 дн.
0
fataI1ty написал(а):
Гаврилова/Живова присутствует перевод ?

нет, только тв5, нтв+, и одноголосый закадровый, но не Гаврилов.
___________________________________________
Набивайте людям головы цифрами, начиняйте их безобидными фактами, пока их не затошнит, - ничего, зато им будет казаться, что они очень образованные. У них даже будет впечатление, что они мыслят, что они движутся вперед, хоть на самом деле они стоят на месте. И люди будут счастливы, ибо "факты", которыми они напичканы, это нечто неизменное
Рэй Бредбери "451° по Фарренгейту"
28 Марта 2015 в 00:38
Отсутствует   denis789 | Участник | Стаж: 8 г. 7 мес. 23 дн.
0
Sokolovi4 написал(а):
fataI1ty написал(а):
Гаврилова/Живова присутствует перевод ?

нет, только тв5, нтв+, и одноголосый закадровый, но не Гаврилов.

Жаль.
Чтоб добавить комментарий нужна
 
Опрос  ↑↓
Умеете ли вы обходить блокировки сайтов?
  
  
  
  
 
Loading...
 
Кто на сайте  ↑↓
Всего 2484, Гостей 2469,
Зарегистрированных 15


Bесь список...
Сегодня ДР у ...  ↑↓
Реклама
 
Загрузка...