Меню пользователя
Реклама
Лучшие за месяц  ↑↓
    Лучшие аплоадеры фильмов:
  • 1. maniak  (11)
  • 2. 13u  (10)
    Лучшие аплоадеры музыки:
  • 1. kandobrik  (130)
    Лучшие аплоадеры игр:
  • 1. ThreeZ  (65)
    Лучшие аплоадеры сериалов:
  • 1. Ressa  (62)
Обсуждают в блогах  ↑↓
Случайные раздачи  ↑↓
Музыка: Nicole Scherzinger - Her name is Nicole (2007) MP3 Музыка: Страуд Джонатан - Трилогия Бартимеуса (2007) MP3 Фильмы:  Наруто Ураганные хроники 99 rus / Naruto Shippuuden 99 (2009) TVRip Фильмы: И прольется дождь  / Barsaat (2005) DVDRip Фильмы: Мастера барьеров (эпизод 13-14) (RUS) / Kekkaishi (2008) DVDRip Игры: MotorStorm Arctic Edge (2009) PS2 Музыка: Феликс Царикати - Русские звёзды 2005 (2005) MP3 Фильмы: NBA 2009 - 10 Detroit Pistons @ Houston Rockets (15.12.2009) (2009) TVRip Фильмы: Дорожное чудовище / Monster Man (2003) DVDRip Фильмы: Хэллоуин 2 / Halloween 2 (2009) DVDRip
Статистика
Яндекс.Метрика

Сонная лощина / Sleepy Hollow (1999) BDRip

Примагнититься
проверено: marazmatik
Название:Сонная лощина / Sleepy Hollow
Год выхода:1999
Жанр:Мистика
Студия/Страна:США, Германия
Режиссер:Тим Бёртон / Tim Burton
В ролях:Джонни Депп, Кристина Риччи, Миранда Ричардсон, Кристофер Уокен, Майкл Гэмбон, Каспер Ван Дин, Джеффри Джонс, Ричард Гриффитс, Кристофер Ли, Иен МакДермид
Длительность:105 мин.
Перевод:Дублированный перевод (дубляж)
Рейтинг:
8.583 (12)
Нью-Йорк, 1799 год. Икабода Крэйна, молодого констебля, отправляют в местечко Сонная лощина для расследования загадочных убийств. Все жертвы, как сообщает местное население, погибают от меча всадника без головы.

Все они обезглавлены, а головы исчезли. Крэйну приходится убедиться, что это не легенда, а страшная правда. Становится очевидно, что убийца приходит с того света, что в преступлениях замешаны ведьмы и иная нечисть. Всадника нельзя убить пулей, всех смельчаков он побеждает в схватках. Но каковы мотивы злодеяний?
Качество видео: HDRip

"MediaInfo"

[code]Общее
Полное имя : D:Рипы выкладка [Deadmauvlad]Рипы готовыеSonnaya.loschina.1999.XviD.HDRip.D.Deadmauvlad.avi
Формат : AVI
Формат/Информация : Audio Video Interleave
Размер файла : 750 Мбайт
Продолжительность : 1 ч. 45 м.
Общий поток : 997 Кбит/сек
Название фильма : Sonnaya.loschina.1999.XviD.HDRip.D.Deadmauvlad / Sonnaya.loschina.1999.XviD.HDRip.D.Deadmauvlad
Режиссёр : Deadmauvlad / Deadmauvlad
Жанр : Ужасы, Триллер , Драма
Программа кодирования : VirtualDubMod 1.5.10.3 | www.virtualdub-fr.org || (build 2550/release)
Формат оригинала/Имя : Фильм
Правообладатель : Goldenshara

Видео
Идентификатор : 0
Формат : MPEG-4 Visual
Профиль формата : Advanced Simple@L5
Параметр BVOP формата : 1
Параметр QPel формата : Нет
Параметр GMC формата : Без точки перехода
Параметр матрицы формата : Выборочная
Идентификатор кодека : XVID
Идентификатор кодека/Подсказка : XviD
Продолжительность : 1 ч. 45 м.
Битрейт : 859 Кбит/сек
Ширина : 720 пикселей
Высота : 400 пикселей
Соотношение сторон : 16:9
Частота кадров : 23,976 кадра/сек
Цветовое пространство : YUV
Субдискретизация насыщенности : 4:2:0
Битовая глубина : 8 бит
Тип развёртки : Прогрессивная
Метод сжатия : С потерями
Бит/(Пиксели*Кадры) : 0.124
Размер потока : 647 Мбайт (86%)
Библиотека кодирования : XviD 73

Аудио
Идентификатор : 1
Формат : MPEG Audio
Версия формата : Version 1
Профиль формата : Layer 3
Идентификатор кодека : 55
Идентификатор кодека/Подсказка : MP3
Продолжительность : 1 ч. 45 м.
Вид битрейта : Постоянный
Битрейт : 128 Кбит/сек
Каналы : 2 канала
Частота : 48,0 КГц
Метод сжатия : С потерями
Размер потока : 96,4 Мбайт (13%)
Выравнивание : Разделение по промежуткам
Продолжительность промежутка : 42 мс. (1,00 видеокадр)
Время предзагрузки промежутка : 500 мс.
Библиотека кодирования : LAME3.99r
Настройки программы : -m s -V 4 -q 2 -lowpass 17 -b 128[/code]
Качество:BDRip
Формат:AVI
Видео:720x400 (1.80:1), 23.976 fps, XviD build 73 ~859 kbps avg, 0.12 bit/pixel
Звук:48 kHz, MPEG Layer 3, 2 ch, ~128.00 kbps avg
Размер:750.40 MB
Файлов:1 [Древовидный список] [Линейный список]
Sample-файл:Скачать
Релиз группы:Deadmauvlad
Начало раздачи:19 Января 2014 в 11:07
Раздает:deadmauvlad
Сидов: 0        Личеров: 0        Отзывов: 6
Скриншот 1 из 3. Разрешение 720x400 Скриншот 2 из 3. Разрешение 720x400 Скриншот 3 из 3. Разрешение 720x400

Поблагодарили за раздачу (4):  Dolores, alexDD, Rozenkraz, hellsingkatrine

Комментарии (6) Все на одной странице
19 Января 2014 в 11:35
Отсутствует   Mumburak15 | Участник | Стаж: 9 г. 5 мес. 12 дн.
+2
очень смешной фильм
19 Января 2014 в 11:36
Отсутствует   Mumburak15 | Участник | Стаж: 9 г. 5 мес. 12 дн.
+2
типичная комедия
19 Января 2014 в 11:58
Отсутствует   tele_set2008 | Участник | Стаж: 10 г. 4 мес. 5 дн.
-3
Реально, комедия, а не фильм)))
19 Января 2014 в 13:08
Отсутствует   TAPMAH | Участник | Стаж: 9 г. 11 мес. 11 дн.
-3
Конкретная комедия))))))
___________________________________________
*Нарушение правил подписи
20 Января 2014 в 16:49
Отсутствует   Oberst1eutnant | Участник | Стаж: 5 г. 29 дн.
0
Это комедия?...оо
23 Января 2014 в 16:10
Отсутствует   mitrol | Участник | Стаж: 8 г. 1 мес. 19 дн.
+1
а давно "сонная лощина" стала комедией?"всадник без головы" тоже комедия?
Чтоб добавить комментарий нужна
 
Опрос  ↑↓
Умеете ли вы обходить блокировки сайтов?
  
  
  
  
 
Loading...
 
Кто на сайте  ↑↓
Сегодня ДР у ...  ↑↓
Реклама
 
Загрузка...